* Dettagli Torrent   globale  | Commenti (0) 


- Il Trenino Thomas - Viaggio Oltre i Confni di Sodor (2017).H264.italian.english.Ac3-5.1.sub-MIRCrew -


Download via torrent:
Categoria bittorrent BDRip
Descrizione
Thomas & Friends: Journey Beyond Sodor  - Il Trenino Thomas - Viaggio Oltre i Confni di Sodor (2017).H264.italian.english.Ac3-5.1.sub-MIRCrew


by www.mircrew-releases.com


NO FOUND ONLY ORIGINAL RELEASE



My release is always in double track audio italian and Original audio
for select it use VLC or dvd player home
not use wmp

Il Trenino Thomas - Viaggio Oltre i Confni di Sodor - Thomas & Friends: Journey Beyond Sodor  (2017)










Titolo: Trenino Thomas (Il) - Viaggio Oltre I Confini Di Sodor
Regia:  Mitton David
Distributore: Universal Pictures
Data di Pubblicazione: 2017
Genere: Animazione
Durata: 60'



   Sylvester Stallone: Ray Quick
   Sharon Stone: May Munro
   James Woods: Ned Trent
   Rod Steiger: Joe Leon
   Eric Roberts: Thomas Leon
   Mario Ernesto Sánchez: Charlie
   Sergio Doré Jr.: Strongarm
   Chase Randolph: padre di May
   Jeana Bell: madre di May
   Brittany Paige Bouck: May da bambina



Una divertente serie che vede come protagonisti dei treni. Man non sono treni qualunque. Ognuno di essi ha immesso nella parte anteriore della locomotiva la sembianza di un volto umano.



Join Thomas and his friends in this exciting adventure to the mainland that shows us friendship is more important than being the favorite engine. Can Thomas and the new experimental engines save James and help bring him back to the Island of Sodor?  









General
Unique ID                                : 34285438339610942949773310235821179920 (0x19CB229ECAB0709BD818B79103BF8410)
Complete name                            : Il Trenino Thomas - Viaggio Oltre i Confni di Sodor (2017).H264..ita.eng-MIRCrew\Il Trenino Thomas - Viaggio Oltre i Confni di Sodor (2017).mkv
Format                                   : Matroska
Format version                           : Version 2
File size                                : 881 MiB
Duration                                 : 1h 13mn
Overall bit rate                         : 1 678 Kbps
Encoded date                             : UTC 2018-09-23T13:04:18Z
Writing application                      : HandBrake 0.10.5 2016021100
Writing library                          : Lavf55.12.0

Video
ID                                       : 1
Format                                   : AVC
Format/Info                              : Advanced Video Codec
Format profile                           : [email protected]
Format settings, CABAC                   : Yes
Format settings, ReFrames                : 4 frames
Codec ID                                 : V_MPEG4/ISO/AVC
Duration                                 : 1h 13mn
Bit rate                                 : 1 300 Kbps
Width                                    : 720 pixels
Height                                   : 404 pixels
Display aspect ratio                     : 16:9
Frame rate mode                          : Variable
Frame rate                               : 25.000 fps
Color space                              : YUV
Chroma subsampling                       : 4:2:0
Bit depth                                : 8 bits
Scan type                                : Progressive
Bits/(Pixel*Frame)                       : 0.179
Stream size                              : 661 MiB (75%)
Writing library                          : x264 core 142 r2479 dd79a61
Encoding settings                        : cabac=1 / ref=3 / deblock=1:0:0 / analyse=0x3:0x113 / me=hex / subme=7 / psy=1 / psy_rd=1.00:0.00 / mixed_ref=1 / me_range=16 / chroma_me=1 / trellis=1 / 8x8dct=1 / cqm=0 / deadzone=21,11 / fast_pskip=1 / chroma_qp_offset=-2 / threads=3 / lookahead_threads=1 / sliced_threads=0 / nr=0 / decimate=1 / interlaced=0 / bluray_compat=0 / constrained_intra=0 / bframes=3 / b_pyramid=2 / b_adapt=1 / b_bias=0 / direct=1 / weightb=1 / open_gop=0 / weightp=2 / keyint=250 / keyint_min=25 / scenecut=40 / intra_refresh=0 / rc_lookahead=40 / rc=abr / mbtree=1 / bitrate=1300 / ratetol=1.0 / qcomp=0.60 / qpmin=0 / qpmax=69 / qpstep=4 / vbv_maxrate=62500 / vbv_bufsize=78125 / nal_hrd=none / filler=0 / ip_ratio=1.40 / aq=1:1.00
Default                                  : Yes
Forced                                   : No
Color primaries                          : BT.470-6 System B, BT.470-6 System G, BT.601-6 625, BT.1358 625, BT.1700 625 PAL, BT.1700 625 SECAM
Transfer characteristics                 : BT.709-5, BT.1361
Matrix coefficients                      : BT.601-6 525, BT.1358 525, BT.1700 NTSC, SMPTE 170M

Audio #1
ID                                       : 2
Format                                   : AC-3
Format/Info                              : Audio Coding 3
Mode extension                           : CM (complete main)
Codec ID                                 : A_AC3
Duration                                 : 1h 13mn
Bit rate mode                            : Constant
Bit rate                                 : 192 Kbps
Channel(s)                               : 2 channels
Channel positions                        : Front: L R
Sampling rate                            : 48.0 KHz
Bit depth                                : 16 bits
Compression mode                         : Lossy
Delay relative to video                  : 1mn 5s
Stream size                              : 101 MiB (11%)
Title                                    : Stereo
Language                                 : Italian
Default                                  : Yes
Forced                                   : No

Audio #2
ID                                       : 3
Format                                   : AC-3
Format/Info                              : Audio Coding 3
Mode extension                           : CM (complete main)
Codec ID                                 : A_AC3
Duration                                 : 1h 13mn
Bit rate mode                            : Constant
Bit rate                                 : 192 Kbps
Channel(s)                               : 2 channels
Channel positions                        : Front: L R
Sampling rate                            : 48.0 KHz
Bit depth                                : 16 bits
Compression mode                         : Lossy
Delay relative to video                  : 1mn 5s
Stream size                              : 101 MiB (11%)
Title                                    : Stereo
Language                                 : English
Default                                  : No
Forced                                   : No

Menu
00:00:00.000                             : :Chapter 1
00:12:20.952                             : :Chapter 2
00:20:03.472                             : :Chapter 3
00:34:37.512                             : :Chapter 4
00:47:23.352                             : :Chapter 5
00:59:19.032                             : :Chapter 6






Info: Per scaricare devi usare un client come uTorrent o Transmission
AnnounceURL
udp://tracker.coppersurfer.tk:6969/announce
Hash f2e5113bad6a342d528b96e18dcdaa30ba1cb3ef
Peers seeds: 17 , leech: 23
Size 880.54 MB
Completato 25x
Aggiunto 09.10.18 - 16:10:57
Uploader   robbyrs
Votazione (Voti: 0)


Condividi questo bittorrent:


html/blog:


bbcode/forum:




Aggiungi Commento


counter Sitemap